Skip to main content

The Dead Live at Allstate Arena on 2009-05-05




The Dead
Allstate Arena
Rosemont, Illinois
5/5/2009

Source: Schoeps CCM4V'S(din)>Lunatec V2>Benchmark AD2K>
Sound Devices 722 (24/48)
Location: OTS/DFC/KFC/ZFC/AARP 12' High
DSP: Sound Devices 722>Sound Forge 9.0>CD Wave>flac(16)
Recorded By: Z-Man
Seeded By: Z-Man

Disc I 1st Set

01 Tuning
02 Dancin' In The Street >
03 Tennessee Jed
04 Golden Road To Unlimited Devotion
05 Mr. Charlie
06 They Love Each Other
07 Touch Of Gray
08 Weather Report Suite Prelude >
09 Part I >
10 Let It Grow

Disc II 2nd Set

01 Tuning
02 Jam >
03 Truckin' >
04 Throwin' Stones
05 Unbroken Chain >
06 Drum Solo With Jeff Chimenti on Keyboards >
07 Drum Solo >

Disc III 2nd Set Con't

01 Space >
02 Come Together >
03 Hell In A Bucket >
04 Jam >
05 I Know You Rider
Encore:
06 Phil Donor Rap
07 Brokedown Palace


Collection TheDead
Band/Artist The Dead
Venue Allstate Arena
Location Rosemont, IL

Source schoeps CCM4V'S(din)>Lunatec V2>Benchmark AD2K> Sound Devices 722 (24/48)
Lineage Sound Devices 722>Sound Forge 9.0>CD Wave>flac(16)
Taped by Z-Man
Transferred by Z-Man

Notes

The Dead
Allstate Arena
Rosemont, Illinois
5/5/2009

Source: Schoeps CCM4V'S(din)>Lunatec V2>Benchmark AD2K>
Sound Devices 722 (24/48)
Location: OTS/DFC/KFC/ZFC/AARP 12' High
DSP: Sound Devices 722>Sound Forge 9.0>CD Wave>flac(16)
Recorded By: Z-Man

shntool

length expanded size cdr WAVE problems fmt ratio filename
1:32.21 16278236 B --- -- ---xx flac 0.3899 thedead2009-05-05d01t01.flac
7:19.24 77496092 B --- -- ---xx flac 0.5042 thedead2009-05-05d01t02.flac
9:51.16 104290076 B --- -- ---xx flac 0.4767 thedead2009-05-05d01t03.flac
9:06.06 96328556 B --- -- ---xx flac 0.5078 thedead2009-05-05d01t04.flac
9:16.36 98163116 B --- -- ---xx flac 0.4930 thedead2009-05-05d01t05.flac
8:51.30 93739004 B --- -- ---xx flac 0.4726 thedead2009-05-05d01t06.flac
7:47.23 82432940 B --- -- ---xx flac 0.5271 thedead2009-05-05d01t07.flac
1:23.35 14723564 B --- -- ---xx flac 0.4041 thedead2009-05-05d01t08.flac
4:40.38 49481420 B --- -- ---xx flac 0.4688 thedead2009-05-05d01t09.flac
14:33.61 154140716 B --- -- ---xx flac 0.5021 thedead2009-05-05d01t10.flac
1:26.09 15191612 B --- -- ---xx flac 0.3432 thedead2009-05-05d02t01.flac
1:21.53 14413100 B --- -- ---xx flac 0.4185 thedead2009-05-05d02t02.flac
13:24.04 141835052 B --- -- ---xx flac 0.4858 thedead2009-05-05d02t03.flac
11:54.25 126008444 B --- -- ---xx flac 0.4766 thedead2009-05-05d02t04.flac
14:21.25 151939244 B --- -- ---xx flac 0.4641 thedead2009-05-05d02t05.flac
5:13.25 55272044 B --- -- ---xx flac 0.4654 thedead2009-05-05d02t06.flac
3:54.49 41392892 B --- -- ---xx flac 0.4293 thedead2009-05-05d02t07.flac
10:59.63 116395820 B --- -- ---xx flac 0.3426 thedead2009-05-05d03t01.flac
7:10.08 75870860 B --- -- ---xx flac 0.4598 thedead2009-05-05d03t02.flac
9:14.56 97857356 B --- -- ---xx flac 0.5082 thedead2009-05-05d03t03.flac
1:59.53 21116300 B --- -- ---xx flac 0.4212 thedead2009-05-05d03t04.flac
8:22.49 88668092 B --- -- ---xx flac 0.5009 thedead2009-05-05d03t05.flac
2:40.32 28299308 B --- -- ---xx flac 0.3972 thedead2009-05-05d03t06.flac
6:11.25 65503244 B --- -- ---xx flac 0.4019 thedead2009-05-05d03t07.flac
172:36.16 1826837088 B 0.4687 (24 files)

Reviews

There are no reviews yet. Be the first one to write a review.
DOWNLOAD OPTIONS
In Collection
The Dead
In Collection
Live Music Archive
Uploaded by
ekoostikal
on 5/8/2009
Views
3,061
Favorites
5
PEOPLE ALSO FOUND
The Dead
by The Dead
686
2
0
Source: Beyerdynamic MC930's(Matched Stereo Pair)(DIN)>Canare Cables>Digi-Mod-Edirol-UA5>Creative Nomad JB3(44.1 khz)
The Dead
by The Dead
1,456
2
2
( 2 reviews )
Source: Schoeps CCM4V'S(din)>Lunatec V2>Sound Devices 722 (24/48)
The Dead
by The Dead
2,000
2
0
Source: Schoeps CCM4V'S(din)>Lunatec V2>Benchmark AD2K> Sound Devices 722 (24/48)
The Dead
by The Dead
608
2
0
Source: schoeps mk-4> actives > nbox > edirol r-09 (24/44.1)
The Dead
by The Dead
1,245
3
1
( 1 reviews )
Source: Beyerdynamic MC930's(Matched Stereo Pair)(DIN)>Canare Cables>Digi-Mod-Edirol-UA5>Creative Nomad JB3(44.1 khz)
The Dead
by The Dead
3,060
5
0
Source: schoeps CCM4V'S(din)>Lunatec V2>Benchmark AD2K> Sound Devices 722 (24/48)
Ekoostik Hookah
by Ekoostik Hookah
2,525
2
0
Source: Schoeps CCM4V'S(din)>Lunatec V2>Sound Devices 722 (24/48)
Leroy Justice
by Leroy Justice
162
1
0
Source: Schoeps CCM4V'S(din)>Lunatec V2>Benchmark AD2K> Sound Devices 722 (24/48) FOB/DFC/KFC/ZFC/AARP 50' From Stage, 7' High
ekoostikal Favorites
110
ITEMS
0
VIEWS
0
Railroad Earth
by Railroad Earth
660
1
1
( 1 reviews )
Source: Schoeps CCM4V'S(din)>Lunatec V2>Benchmark AD2K> Sound Devices 722 (24/48) FOB/DFC/KFC/ZFC/AARP 39' From Stage, 7' High